Dirk Gently Holistic Detective Agency S01E04 1080p WEB-DL x265

seeders: 32
leechers: 9
updated:
Added

Description

Source:Dirk Gentlys Holistic Detective Agency S01E04 Watkin 1080p WEB-DL DD5.1 H.264-kpbong(1.62 GB)


Complete name:
Dirk.Gentlys.Holistic.Detective.Agency.S01E04.Watkin.1080p.WEB.DL.HEVC.DD5.1.x265.mkv
Format                                   : Matroska
Format version                           : Version 4 / Version 2
File size                                : 667 MiB
Duration                                 : 41mn 45s
Overall bit rate                         : 2 233 Kbps
Writing application                      : Lavf57.25.100

Video

ID                                       : 1
Format                                   : V_MPEGH/ISO/HEVC
Duration                                 : 41mn 45s
Bit rate                                 : 1 804 Kbps
Width                                    : 1 916 pixels
Height                                   : 1 076 pixels
Display aspect ratio                     : 16:9
Frame rate                               : 25.000 fps
Bits/(Pixel*Frame)                       : 0.035
Stream size                              : 539 MiB (81%)
Default                                  : Yes
Forced                                   : No
DURATION                                 : 00:41:45.011000000

Audio

ID                                       : 2
Format                                   : AC-3
Format/Info                              : Audio Coding 3
Mode extension                           : CM (complete main)
Format settings, Endianness              : Big
Codec ID                                 : A_AC3
Duration                                 : 41mn 45s
Bit rate mode                            : Constant
Bit rate                                 : 384 Kbps
Channel(s)                               : 6 channels
Channel positions                        : Front: L C R, Side: L R, LFE
Sampling rate                            : 48.0 KHz
Bit depth                                : 16 bits
Compression mode                         : Lossy
Stream size                              : 115 MiB (17%)
Writing library                          : Lavc57.24.102 ac3
Default                                  : No
Forced                                   : No
DURATION                                 : 00:41:45.105000000

Text

ID                                       : 3
Codec ID                                 : S_TEXT/ASS
Default                                  : Yes

Related Torrents

torrent name size seed leech
2.07 GB 26 6
468.57 MB 24 5
1.47 GB 24 5
641.44 MB 20 5
646.26 MB 17 4
456.09 MB 17 3
488.98 MB 17 7
509.91 MB 15 3
763.67 MB 13 3
853.92 MB 12 3
580.18 MB 10 3
649.64 MB 9 3
1.9 GB 9 3
198.93 MB 8 3
513.43 MB 8 3
1.93 GB 8 3
693.16 MB 2 1
765.13 MB 1 1
492.72 MB 1 1
1.98 GB 1 1